7K

Slutty Stepmom's Ass

  • 100% (9 Votes)

Sign up or login to manage your playlists.

Go Premium

58 min  •  13 October, 2021

Red-haired Lauren Phillips just married the dude's father and she wants to spend more time with her stepson to learn him better. She comes up to him and tells him they can have a lot of fun this weekend to get closer to each other but soon she notices he doesn't take his eyes off her big boobs. Her melons, literally, mesmerize the dude and he can think only about squeezing and caressing them.

Experience over
4,400
more videos in the premium area
Go Premium
Comments (3)
deskobo
1 week ago
imho they are using the wrong encoder for 7K, why AVC? It should be HEVC like it's already used for 6K!
Please correct your encoder settings! Or tell them if POVR doesn't encode it extra!

7K
Video
ID : 1
Format : AVC
Format/Info : Advanced Video Codec
Format profile : High@L6.1
Format settings : CABAC / 5 Ref Frames
Format settings, CABAC : Yes
Format settings, Reference frames : 5 frames
Codec ID : avc1
Codec ID/Info : Advanced Video Coding
Duration : 57 min 33 s
Bit rate : 29.9 Mb/s
Width : 7 168 pixels
Height : 3 584 pixels
Display aspect ratio : 2.000
Frame rate mode : Constant
Frame rate : 59.940 (60000/1001) FPS
Color space : YUV
Chroma subsampling : 4:2:0
Bit depth : 8 bits
Scan type : Progressive
Bits/(Pixel*Frame) : 0.019
Stream size : 12.0 GiB (99%)
Color range : Limited
Color primaries : BT.709
Transfer characteristics : BT.709
Matrix coefficients : BT.709
Codec configuration box : avcC

6K
Video
ID : 1
Format : HEVC
Format/Info : High Efficiency Video Coding
Format profile : Main@L6.1@Main
Codec ID : hev1
Codec ID/Info : High Efficiency Video Coding
Duration : 57 min 33 s
Bit rate : 33.7 Mb/s
Width : 6 912 pixels
Height : 3 456 pixels
Display aspect ratio : 2.000
Frame rate mode : Constant
Frame rate : 59.940 (60000/1001) FPS
Color space : YUV
Chroma subsampling : 4:2:0
Bit depth : 8 bits
Scan type : Progressive
Bits/(Pixel*Frame) : 0.024
Stream size : 13.6 GiB (99%)
Tagged date : UTC 2021-10-09 21:35:30
Color range : Limited
Color primaries : BT.709
Transfer characteristics : BT.709
Matrix coefficients : BT.709
Codec configuration box : hvcC
vanter
2 weeks ago
6k version works fine.

Any day with Lauren is a good day. She looked beautiful. Only critique I can offer is her lips were dry and chapped. Besides that she gave a good performance. Facial expressiveness is one of her strengths.

Stunt cock was decent. Could have used more hands, like during the bj. But maybe they didn't want to ruin her makeup or it was no hands Thursday.

Technical aspects. The image quality was kind of blown out or hot coming from the windows. The image also seemed a bit desaturated, perhaps due to the intensity of the lighting. I tried to compensate with Deos settings, but it seemed like every setting I changed ended up shifting the image in a direction I didn't want to go.

Over all though it was an enjoyable experience and I got a couple good VR screenshots to add to my Lauren Phillips favorites.
vanter
2 weeks ago
The 7k version was pixelated and freezing up on me. I'm on the Q2 using air link. I did watch two other videos without any issue, so I'm pretty sure it was this video.

I'll try the 6k version later when I have time, as I am a Lauren fan.
Related Videos
Neighbor Sexy Ass
VR 7K
Hot Asian SPA
VR 7K
RealJamCasting: Sophia Leone (Multicams)
VR 5K
Threesome: Anal Rental Payment
VR 7K
Camp's Anal Orgy
VR 7K
Threesome: After Party
VR 7K
Lulu Chu as a Birthday Gift
VR 7K
RealJamCasting: Sophia Leone
VR 5K